Карикатуры - Приколись-ка

Рейтинг
Просмотров: 9846
ОС: Android
папаверин курс лечения при беременности

Страницы:  1

Автор Сообщение

DarK-El


Зловещие Алкаши 3: Армия Алкоголиков / Army of Darkness
Дата/Год выпуска: 2015 (Оригинал 1992)
Страна: США
Жанр: ужасы, фэнтези, боевик, комедия
Продолжительность: 01:20:54
Перевод: Авторский (одноголосый закадровый)
Доп. инфо о переводе: DEADPOOL PROJECT
Режиссер: Сэм Рэйми
Актеры: Брюс Кэмпбелл, Эмбет Дэвидц, Маркус Гилберт, Йен Эберкромби, Ричард Гроув, Тимоти Патрик Куилл, Майкл Эрл Рейд, Бриджит Фонда, Патриша Тэллман, Тед Рэйми
Описание: В юморной версии перевода Эш переносится в средневековье и оказывается в самой гуще конфликта между трезвенниками и самогонщиками, которым досаждают надоедливые алкоголики.
Сэмпл: http://multi-up.com/1046971
Еще раздача от автора: http://rutracker.org/forum/viewtopic.php?t=5002402 БЕЛОЧКА
Качество:BDRip
Формат: MKV
Видео кодек: AVC Baseline@L4.1
Аудио кодек: AC-3
Видео: 1920x1080, 16:9, 30,000 кадров/сек , Битрейт 15,0 Мбит/сек, 0.241bit/pixel
Аудио: 48kHz, AC-3, 2 ch, 224.00 kbps avg

MediaInfo

Общее
Уникальный идентификатор : 87546781526616953742695516992924494848 (0x41DCE5953039195FB49611AF67FB2C00)
Полное имя : C:\Users\ajer\Videos\Zloveshie_Alcashi BDrip.2015_by deadpool project.mkv
Формат : Matroska
Версия формата : Version 2
Размер файла : 8,49 Гбайт
Длительность : 1 ч. 20 м.
Общий поток : 15,0 Мбит/сек
Дата кодирования : UTC 2015-05-05 06:36:43
Программа кодирования : Lavf52.93.0
Библиотека кодирования : Lavf52.93.0
Видео
Идентификатор : 1
Формат : AVC
Формат/Информация : Advanced Video Кодек
Профиль формата : High@L4.1
Параметр CABAC формата : Да
Параметр ReFrames формата : 4 кадра
Идентификатор кодека : V_MPEG4/ISO/AVC
Длительность : 1 ч. 20 м.
Битрейт : 15,0 Мбит/сек
Ширина : 1920 пикселей
Высота : 1080 пикселей
Соотношение сторон : 16:9
Режим частоты кадров : Постоянный
Частота кадров : 30,000 кадров/сек
Цветовое пространство : YUV
Субдискретизация насыщенности : 4:2:0
Битовая глубина : 8 бит
Тип развёртки : Прогрессивная
Бит/(ПикселиКадры) : 0.241
Размер потока : 8,20 Гбайт (97%)
Библиотека кодирования : x264 core 112
Настройки программы : cabac=0 / ref=1 / deblock=1:0:0 / analyse=0x1:0x111 / me=hex / subme=7 / psy=1 / psy_rd=1.00:0.00 / mixed_ref=0 / me_range=16 /
chroma_me=1 / trellis=1 / 8x8dct=0 / cqm=0 / deadzone=21,11 / fast_pskip=1 / chroma_qp_offset=-2 / threads=1 / sliced_threads=0 / nr=0 / decimate=1 / interlaced=0 /
constrained_intra=0 / bframes=0 / weightp=0 / keyint=250 / keyint_min=25 / scenecut=40 / intra_refresh=0 / rc_lookahead=40 / rc=abr / mbtree=1 / bitrate=15000 / ratetol=1.0 /
qcomp=0.60 / qpmin=10 / qpmax=51 / qpstep=4 / ip_ratio=1.41 / aq=1:1.00
Язык : English
Default : Да
Forced : Нет
Дата кодирования : UTC 2015-05-05 06:36:43
Аудио
Идентификатор : 2
Формат : AC-3
Формат/Информация : Audio Coding 3
Расширение режима : CM (complete main)
Параметр Endianness формата : Big
Идентификатор кодека : A_AC3
Длительность : 1 ч. 20 м.
Вид битрейта : Постоянный
Битрейт : 224 Кбит/сек
Каналы : 2 канала
Расположение каналов : Front: L R
Частота : 48,0 КГц
Битовая глубина : 16 бит
Метод сжатия : С потерями
Размер потока : 130 Мбайт (1%)
Язык : English
Default : Да
Forced : Нет
Дата кодирования : UTC 2015-05-05 06:36:43

Скриншоты

Download
Сайт не распространяет и не хранит электронные версии произведений, а лишь предоставляет доступ к создаваемому пользователями каталогу ссылок на торрент-файлы, которые содержат только списки хеш-сумм
 

Richard_V


А смысл качать такой размер когда неизвестно что в итоге получится? Можно было бы для ознакомления и полегче версию сделать.

 

MrClon


Согласен, но уже качаю так.
P.S. автор случайно не родственник некоему SIGMANDу, переведшему первую часть Мертвецов?

 

Richard_V


Слон, отпишись потом, как и что, пожалуйста. И я уже сам буду думать, качать или нет...

 

vulev45


Начало прикольно. Но SIGMAND ли это, не вполне ясно.

 

Регистратоp


Ни хрена себе размерчик кина...

 

MrClon


Richard_V
Начал смотреть. Вроде пока неплохо, хотя 1080p это перебор. Erceck сделал более компактную версию.
P.S. чего на форум Альянса не заходишь?
UPD:
Не без удовольствия посмотрел. Не шедевр, но вполне смотрибельно.
Автор, каковы дальнейшие творческие планы?

 

DarK-El


MrClon писал(а):

67726736Richard_V
Начал смотреть. Вроде пока неплохо, хотя 1080p это перебор. Erceck сделал более компактную версию.
P.S. чего на форум Альянса не заходишь?
UPD:
Не без удовольствия посмотрел. Не шедевр, но вполне смотрибельно.
Автор, каковы дальнейшие творческие планы?

дальше в планах вот к примеру [url=]https://www.youtube.com/watch?v=7KvqxcVytf8[/url]
Также скоро еще один мини-сериал, который уже есть на моем ютуб канале, но я соеденю его в один файл и добавлю саунды.
 

SergeyJD


⇒ Уточните, пожалуйста, тех. данные:
В описании раздачи обязательно должна присутствовать максимально развернутая и исчерпывающая информация, описывающая полное содержание раздачи и подробные технические данные о раздаваемом материале.
Обязательно должны быть указаны:
1. Для видео - качество, формат файла, использованный видеокодек, разрешение кадра (в пикселях), значение видеобитрейта (kbps) и частота кадров в секунду (fps)
2. Для аудио - использованный аудиокодек, значение аудиобитрейта (kbps), количество аудиоканалов (ch) и частота дискретизации (kHz) для каждой из дорожек.

► Пример правильного шаблона тех.данных, при оформлении:
Качество:
Формат:
Видео кодек:
Аудио кодек:
Видео:
Аудио:


О требованиях к техническим характеристикам
-⇒ Исправьте и перезалейте, пожалуйста, скриншоты в виде миниатюр
Все скриншоты должны соответствовать заявленному разрешению, и быть оформлены в виде миниатюр (превью - увеличение по клику) от 150 до 300 пикселей по большей стороне.

Пример: для скриншатов ввиде кликабельных превью (где это находится)


О скриншотах
Ознакомьтесь, пожалуйста
Правила оформления раздач в разделе Развлекательные телепередачи и шоу, приколы и юмор




? Недооформлено


-⇒ Устранили замечания и дооформили раздачу - отписываемся мне по ЛС с указанием ссылки на эту раздачу
 

Регистратоp


MrClon писал(а):

67726736Richard_V
Начал смотреть. Вроде пока неплохо, хотя 1080p это перебор. Erceck сделал более компактную версию.

А где она есть более компактная версия?
 

alex666-2009


Согласен: 8,5 Гб для полуторачасового фильма - мягко говоря - дохера! Может можно полегче версию выложить?

 

onZErun


alex666-2009, это 1080р. Данные рипы и должны быть примерно такого размера, продолжительность здесь ни при чём.
Хотя, конечно, у автора не отсохли бы руки выложить версию полегче, чтоб удовлетворить запросы публики. А у меня отсохнут - я пожал, но не выложу.

 

Gorinich911


Мат через слово, к месту и не к месту. Осилил лишь 5 минут. В корзину однозначно.

 

PiratSuv


А можно дорогу отдельно ?! Видео поток то чего по 100 раз перекачивать ...

 

DarK-El


PiratSuv писал(а):

69140667А можно дорогу отдельно ?! Видео поток то чего по 100 раз перекачивать ...

как 1-я часть будет, сделаю триллогию с меньшим размером
 

Источник: http://rutracker.org/forum/viewtopic.php?t=5000890